<?xml version="1.0" standalone="no"?>
<!DOCTYPE svg PUBLIC "-//W3C//DTD SVG 1.1//EN" "http://www.w3.org/Graphics/SVG/1.1/DTD/svg11.dtd" >
<svg xmlns="http://www.w3.org/2000/svg">
<metadata>Generated by IcoMoon</metadata>
<defs>
<font id="pinpoint-businesses" horiz-adv-x="1024">
<font-face units-per-em="1024" ascent="960" descent="-64" />
<missing-glyph horiz-adv-x="1024" />
<glyph unicode="&#x20;" horiz-adv-x="512" d="" />
<glyph unicode="&#xe900;" glyph-name="apartment" d="M857.771 893.867c-125.995 102.784-311.381 83.925-414.165-42.155-76.245-93.483-85.205-219.605-33.451-320.469l-54.144-66.432 34.944-28.459c-58.539-67.456-45.483-118.4-45.483-118.4l-58.624-9.216 7.424-53.504-53.888-3.499 1.579-60.757-110.891-73.429-6.528-70.571-66.731-19.2 19.157-91.605 93.483-0.299 333.141 408.576 34.987-28.587 54.229 66.389c109.269-30.336 230.997 3.84 307.2 97.365 102.656 126.080 83.883 311.552-42.24 414.251zM796.032 678.357c-30.848-37.803-86.443-43.477-124.16-12.629-37.888 30.848-43.563 86.485-12.672 124.288 30.933 37.76 86.4 43.477 124.245 12.629 37.717-30.848 43.349-86.528 12.587-124.288z" />
<glyph unicode="&#xe901;" glyph-name="baby-sitter" d="M743.595 321.792h-463.232c-19.413-36.651-30.592-78.336-30.592-122.667 0-144.896 117.376-262.229 262.187-262.229 144.768 0 262.272 117.333 262.272 262.229-0.043 44.331-11.136 86.016-30.635 122.667zM512 23.509c-96.896 0-175.445 78.635-175.445 175.616v0.171l350.891-0.171c-0.043-96.896-78.549-175.616-175.445-175.616zM913.323 513.408l-0.085 0.085c-17.749-18.987-42.411-31.232-70.229-32.213v-0.213h-2.347c-0.512 0-0.768-0.085-1.237-0.085-0.256 0-0.427 0.085-0.768 0.085l-656.597 0.128c-30.677 0.981-57.557 15.787-75.392 38.229l-0.213-0.085c0 0-29.867 30.080-54.912-4.139-9.813-15.531-15.701-33.792-15.701-53.632 0-50.773 37.376-92.501 86.144-100.139 2.603-0.512 4.992-1.493 7.765-1.493l761.429 0.469c54.016 2.517 97.067 46.635 97.067 101.291 0 18.987-5.333 36.693-14.421 51.925-31.659 38.955-60.501-0.213-60.501-0.213zM512 959.104c-99.84 0-180.736-80.896-180.736-180.693 0-54.827 24.917-103.381 63.445-136.491l-0.213-0.853c0 0 16.299-9.344 16.299-39.979v-16.085c-1.024-10.325-4.821-23.637-18.731-25.088v-40.576h239.36v40.576c-15.915 4.437-18.005 24.747-18.176 33.195v12.971c0 20.608 18.176 36.437 18.176 36.437v0.896c37.333 33.152 61.355 80.981 61.355 134.869-0.043 99.84-80.939 180.821-180.779 180.821zM520.789 877.952c-0.939-0.341-1.067-0.768-1.792-1.109-50.133-15.019-86.997-60.971-86.997-116.011 0-15.104 3.2-29.355 8.448-42.581 0.085-0.128-0.043-0.213 0-0.341 4.053-11.648 6.229-20.693 6.357-21.077-4.224-10.496-17.92-0.171-22.101 3.285-21.163 21.76-34.432 51.2-34.432 84.011 0 66.176 52.992 119.765 118.741 121.344 12.672-1.109 21.376-6.997 21.504-7.125 5.163-5.376 7.253-13.056-9.728-20.395z" />
<glyph unicode="&#xe902;" glyph-name="bar" d="M794.496 650.667v309.333h-564.992v-309.333c0-134.144 93.568-246.144 218.965-275.072v-336.939h-90.923c-25.941 0-46.549-19.541-50.048-44.544h-0.64v-3.413c-0.043-1.024-0.683-2.091-0.683-3.243v-0.085c0-1.109 0.597-2.219 0.683-3.328v-48.043h410.923v58.155h-1.365c-3.413 24.96-24.149 44.544-50.133 44.544h-91.008v337.024c125.739 28.8 219.221 140.8 219.221 274.944zM306.56 706.987v149.845h412.032v-149.845h-412.032z" />
<glyph unicode="&#xe903;" glyph-name="basketball-court" d="M512 959.659c-282.624 0-511.659-229.035-511.659-511.659 0-282.539 229.035-511.659 511.659-511.659 282.539 0 511.659 229.12 511.659 511.659 0 282.624-229.12 511.659-511.659 511.659zM680.619 676.864c-60.245 72.448-80.213 140.843-86.357 178.603 67.627-13.568 129.323-43.563 180.736-85.675l-94.379-92.928zM835.371 708.949c41.216-50.944 70.656-111.701 84.096-178.261-36.907 7.424-108.16 28.288-178.475 85.248l94.379 93.013zM523.776 863.104c8.789-56.235 35.157-143.531 109.995-232.363l-122.453-120.619-263.125 259.115c71.765 59.051 163.627 94.507 263.808 94.507 3.968 0 7.808-0.555 11.776-0.64zM187.989 708.139l262.187-258.219-122.069-120.149c-89.6 75.008-177.365 99.797-231.253 107.819-0.085 3.584-0.555 6.912-0.555 10.496-0.043 98.475 34.432 188.8 91.691 260.053zM186.325 190.037c-40.235 50.773-68.992 111.019-82.005 176.896 34.219-5.035 103.424-23.381 176.853-83.371l-94.848-93.525zM342.443 223.403c58.368-70.656 80.427-143.232 88.363-183.040-69.333 13.696-132.437 44.587-184.704 88.149l96.341 94.891zM506.283 32.597c-10.24 53.547-38.869 147.157-116.949 236.928l121.984 120.107 265.813-261.76c-72.021-59.691-164.352-95.573-265.131-95.573-1.963 0-3.84 0.299-5.717 0.299zM837.077 189.269l-264.576 260.651 121.557 119.765c89.984-77.44 182.955-105.045 233.301-114.688 0-2.304 0.384-4.608 0.384-6.955-0.043-97.92-34.133-187.733-90.667-258.773z" />
<glyph unicode="&#xe904;" glyph-name="beauty-salon" d="M1000.661 582.656c0 11.264-0.939 22.272-1.749 33.323h-111.957c-16.768 192.384-178.219 343.339-374.955 343.339s-358.144-150.955-374.997-343.339h-111.915c-0.768-11.008-1.749-22.059-1.749-33.323 0-251.392 189.867-458.283 434.005-485.419v-71.765h-101.675v-88.832h312.704v88.832h-101.717v71.765c244.096 27.221 434.005 234.069 434.005 485.419zM512 884.011c166.4 0 301.312-134.912 301.312-301.312 0-166.357-134.869-301.312-301.312-301.312-166.4 0-301.312 134.784-301.312 301.312 0.043 166.4 134.955 301.312 301.312 301.312zM68.395 570.837h67.541c6.272-202.453 172.032-364.928 376.064-364.928s369.792 162.475 376.107 364.928h67.541c-6.315-239.829-202.24-432.427-443.563-432.427-241.365 0-437.291 192.683-443.691 432.427z" />
<glyph unicode="&#xe905;" glyph-name="bikes" d="M824.32 565.589l-22.101 130.475v3.499l-2.603 16.299-4.523 23.552h-142.165v-54.144h107.989l8.064-48.171h-83.2l-170.923-226.219-112.085 172.032h53.803v68.267h-170.667v-68.267h51.2l-25.813-47.104c-31.019 18.987-67.371 30.123-106.325 30.123-113.024 0-204.715-91.648-204.715-204.757 0-112.896 91.648-204.587 204.715-204.587 107.136 0 194.901 82.347 203.819 187.093h103.168v0.597l0.427 0.512 0.811-0.896 0.299-0.427 181.035 239.659h83.797l3.371-20.565c-95.061-17.579-167.339-100.864-167.339-201.216 0-112.896 91.563-204.587 204.672-204.587 113.152 0 204.757 91.563 204.757 204.587-0.128 111.019-89.003 201.344-199.467 204.245zM320.299 461.397c17.963-20.693 30.635-45.995 35.456-74.155h-76.16l40.704 74.155zM204.885 207.659c-84.779 0-153.557 68.651-153.557 153.429 0 84.821 68.736 153.6 153.557 153.6 30.123 0 57.899-9.003 81.621-23.979l-56.747-103.467h-0.043l-24.107-43.904 49.963 0.171 0.043 0.085h100.949c-8.747-76.416-72.917-135.936-151.68-135.936zM407.723 387.243c-6.059 47.659-28.416 89.984-61.355 121.643l26.197 47.744 110.336-169.387h-75.179zM818.987 207.659c-84.736 0-153.515 68.651-153.515 153.429 0 74.965 53.76 137.173 124.757 150.699l28.416-168.192 42.027 7.168-27.477 162.517c77.867-7.296 139.349-72.192 139.349-152.064-0.043-84.864-68.779-153.557-153.557-153.557z" />
<glyph unicode="&#xe906;" glyph-name="boat" d="M746.752 332.757l51.328-61.696-200.576-148.352c-0.085-0.085-0.085-0.085-0.085-0.085-24.832-18.389-24.235 10.539-24.235 10.539v520.363h1.365v12.075h101.76v0.171h11.435c24.363 0 44.16 19.797 44.16 44.245v36.907c0 24.363-19.797 44.245-44.16 44.245h-113.195v26.453c13.312 15.104 21.717 34.603 21.717 56.235 0 47.189-38.272 85.461-85.461 85.461s-85.419-38.272-85.419-85.461c0-21.675 8.277-41.173 21.547-56.235v-26.496h-113.109c-24.405 0-44.203-19.883-44.203-44.288v-36.821c0-24.448 19.797-44.245 44.203-44.245h38.997v-0.171h72.064v-533.632c-0.085-5.205-1.835-24.277-22.357-9.344l-199.552 144.896 54.229 65.152-195.371 0.469 35.925-191.957 55.339 66.389 335.957-270.891 340.693 272.512 56.661-68.011 35.755 192-195.413-0.427zM510.635 908.587c23.595 0 42.752-19.157 42.752-42.795 0-23.552-19.243-42.667-42.752-42.667-23.552 0-42.752 19.115-42.752 42.667 0 23.637 19.2 42.795 42.752 42.795z" />
<glyph unicode="&#xe907;" glyph-name="business" d="M971.733 957.739h-919.509c-28.203 0-51.072-22.869-51.072-51.072v-610.816c0-28.288 22.912-51.072 51.072-51.072h406.528v-155.477l-154.283-151.040h415.104l-154.325 151.040v155.477h406.485c28.245 0 51.072 22.784 51.072 51.072v610.816c0.043 28.203-22.784 51.072-51.072 51.072zM920.661 396.928c0-28.245-22.827-51.072-51.072-51.072h-715.179c-28.203 0-51.072 22.827-51.072 51.072v408.661c0 28.16 22.912 51.072 51.072 51.072h715.179c28.245 0 51.072-22.912 51.072-51.072v-408.661zM833.493 613.845l39.424 190.037-192.341-35.157 39.339-39.808-179.584-179.755-118.955 118.955-76.203-76.203 0.555-0.469-194.603-194.517h152.277l118.485 118.4 118.528-118.4 76.16 76.117-0.256 0.085 179.243 179.157z" />
<glyph unicode="&#xe908;" glyph-name="camping-gears" d="M904.192 55.509l-169.771 48.939 169.941 48.085c25.813 7.253 40.96 34.261 33.536 60.16l-6.656 23.467c-7.424 25.856-34.304 40.96-60.203 33.621l-358.912-101.632-358.443 103.253c-25.856 7.467-52.907-7.424-60.416-33.323l-6.784-23.467c-7.467-25.899 7.467-52.907 33.365-60.459l169.771-48.896-169.941-48.085c-25.984-7.168-41.003-34.219-33.707-60.16l6.699-23.381c7.296-25.899 34.304-41.088 60.245-33.664l358.912 101.589 358.4-103.168c25.984-7.381 53.035 7.339 60.459 33.493l6.784 23.424c7.595 25.771-7.339 52.779-33.28 60.203zM724.523 619.093l0.555 0.341-6.912 10.667c-1.835 2.901-2.987 4.949-2.987 4.949l-132.309 207.445-69.248 117.035-50.133-84.821-106.368-172.928-51.328-76.971c0 0 0.128-0.555 0.128-0.597-5.973-9.515-10.709-19.627-15.317-29.824-3.285-8.149-6.315-16.128-8.661-22.955-16.128-47.573-18.389-100.096-1.408-151.595 42.24-127.957 180.309-197.461 308.181-155.264 105.643 34.816 170.24 134.955 166.272 240.725 0.299 2.901 0.64 7.168 0.213 13.781 0 1.749-0.384 3.413-0.597 5.163-0.085 0.171 0 0.384-0.085 0.64-2.944 38.955-19.243 74.624-29.995 94.208zM558.208 357.205c-76.843-25.344-159.744 16.384-185.045 93.184-7.509 22.827-8.832 46.165-5.205 68.352 0.597 2.133 8.064 27.52 21.077 48.768l124.288 202.197 109.995-172.715 14.677-26.155c0.853-1.195 1.323-2.475 2.133-3.797l2.133-3.797-0.256-0.085c3.328-6.699 6.827-13.483 9.259-20.949 25.429-76.885-16.213-159.616-93.056-185.003z" />
<glyph unicode="&#xe909;" glyph-name="camping" d="M1022.677-60.587l-403.115 702.080 0.299 0.171-47.061 81.237-15.573 27.051 91.179 157.355-76.331 44.16-65.536-113.28-1.621 2.816-0.256-0.469-67.157 116.011-76.203-44.075 93.355-161.28-39.083-70.144-25.813-44.459 0.64-0.427-389.077-696.747h354.816v104.832c0 86.016 69.76 155.819 155.861 155.819 86.144 0 155.904-69.845 155.904-155.819v-104.832h354.773z" />
<glyph unicode="&#xe90a;" glyph-name="cars" d="M972.544 603.093h-36.053c-27.691 0-50.133-22.4-50.133-50.133 0-3.243 1.28-6.101 1.877-9.173l-0.427-0.085-130.389 298.88-0.085-0.128c-7.339 18.432-25.259 31.616-46.379 31.616h-398.123c-18.133 0-33.323-10.112-42.112-24.576-0.085 0-0.853 0.171-0.853 0.171l-1.835-4.011c-0.597-1.408-1.237-2.731-1.792-4.181l-128.597-288.299c-0.085 27.563-22.485 50.005-50.133 50.005h-36.053c-27.776 0-50.133-22.485-50.133-50.133 0-23.893 17.024-42.923 39.339-47.957l0.384-1.109 70.4-10.837c-1.024-3.669-2.091-7.339-2.091-11.392v-267.819c0-22.4 15.019-40.747 35.243-47.104v-94.805c0-27.691 22.443-50.133 50.133-50.133h51.157c27.691 0 50.133 22.4 50.133 50.133v91.733h432.597v-91.733c0-27.691 22.4-50.133 50.133-50.133h51.2c27.563 0 50.133 22.4 50.133 50.133v95.445c18.304 7.339 31.317 25.387 31.317 46.421v267.819c0 3.883-1.067 7.381-2.091 10.88l73.557 11.349 0.384 1.109c22.315 5.035 39.381 24.021 39.381 47.957 0.043 27.648-22.4 50.091-50.091 50.091zM201.131 540.843l106.496 255.061h0.853c5.973 21.035 24.533 36.779 47.36 36.779h309.163c22.997 0 41.515-15.701 47.445-36.736l0.811-0.043 105.771-255.061h-617.899z" />
<glyph unicode="&#xe90b;" glyph-name="chef" d="M809.088 805.205v0.853h-8.405c-2.005 0.043-3.925 0.597-6.016 0.597-2.688 0-5.205-0.469-7.936-0.64h-38.955c-40.107 90.752-130.389 154.368-235.861 154.368-84.053 0-157.952-40.619-205.099-102.656h-49.152c-0.896 0-1.707 0.171-2.645 0.171-0.597 0-1.067-0.171-1.707-0.171h-6.315v-0.64c-109.397-4.352-196.907-93.653-196.907-204.075 0-95.701 65.92-175.36 154.624-197.803v-519.595h614.699v515.584c87.168 12.075 154.539 85.717 154.539 176.171-0.043 93.995-72.704 170.325-164.864 177.835zM633.771 37.931h-326.741v148.907h409.941v-148.907h-83.2zM792.235 551.040h-75.264v-202.453h-409.941v199.552h-49.408c-0.896 0-1.664-0.256-2.56-0.256-0.811 0-1.579 0.213-2.432 0.256h-3.2v0.299c-53.888 3.029-96.853 47.232-96.853 101.973 0 56.576 45.909 102.485 102.485 102.485 1.92 0 3.541-0.64 5.376-0.768h106.155c20.267 61.269 77.141 105.771 145.195 105.771 84.821 0 153.728-68.821 153.728-153.771h120.021c2.219 0.213 4.437 0.683 6.699 0.683 42.411 0 76.885-34.432 76.885-76.885s-34.475-76.885-76.885-76.885z" />
<glyph unicode="&#xe90c;" glyph-name="cinema" d="M885.419 677.717c-41.216-41.941-108.587-42.667-150.528-1.621-42.069 41.088-42.923 108.544-1.835 150.613l-45.099 44.117c0 0-0.043-0.085-0.085-0.128l-91.477 89.301-594.304-608.171 137.259-134.101c40.747 41.6 107.563 42.411 149.291 1.835 41.728-40.832 42.453-107.648 1.707-149.419l46.080-45.099 91.136-89.045 594.347 608.299-136.491 133.419zM723.072 360.064l-296.96-303.829-47.275 46.165c14.336 56.747-0.384 119.168-45.312 162.987-44.843 43.904-107.605 57.173-164.096 41.6l-47.275 46.251 296.96 303.829 60.757-59.349 44.501 45.525-60.8 59.392 133.675 136.747 47.659-46.592c-13.995-56.491 0.853-118.571 45.355-162.219 44.715-43.733 107.221-57.173 163.541-41.899l47.275-46.165-133.632-136.789-58.283 56.96-44.587-45.653 58.496-56.96zM569.695 599.040l91.79-89.698-44.551-45.59-91.79 89.698 44.551 45.59z" />
<glyph unicode="&#xe90d;" glyph-name="clothes" d="M828.587 251.819c0 111.403-58.027 208.768-145.067 265.173v443.861h-90.837v-71.723l-80.725-53.376-81.877 53.376v71.765h-89.728v-443.861c-87.083-56.363-145.067-153.771-145.067-265.173 0-5.419 0.597-10.752 0.853-16.043h-0.341v-180.48c0 0 96-41.515 138.667-65.707 0.043-0.043 0.043-0.043 0.085-0.043 50.645-34.304 111.659-54.4 177.408-54.4 69.632 0 133.888 22.741 186.112 60.885 0.939 0.555 1.536 0.896 2.432 1.365 49.365 34.859 128.171 57.899 128.171 57.899v180.437h-0.853c0.256 5.291 0.768 10.581 0.768 16.043z" />
<glyph unicode="&#xe90e;" glyph-name="club" d="M635.733 771.072h4.096v118.059h-252.843v-118.059h1.067c-133.461-50.176-228.565-178.645-228.565-329.685 0-194.603 157.824-352.427 352.469-352.427 194.688 0 352.555 157.824 352.555 352.427 0 151.040-95.275 279.509-228.779 329.685zM384 183.851c-56.107 27.989-101.675 73.6-129.664 129.664h129.664v-129.664zM384 377.515h-152.491c-4.693 20.651-7.381 41.813-7.381 63.915 0 22.571 2.859 44.373 7.723 65.28h152.192l-0.043-129.195zM384 570.709h-128.939c27.989 55.467 73.259 100.565 128.939 128.213v-128.213zM576.896 161.237c-21.077-4.821-42.667-7.68-64.939-7.68-22.016 0-43.392 2.731-64 7.339v152.576h128.939v-152.235zM576.896 377.515h-128.896v129.195h128.939v-129.195zM576.896 570.709h-128.896v151.168c20.608 4.608 41.941 7.381 64 7.381 22.357 0 44.032-2.773 64.939-7.637v-150.912zM640.896 698.496c55.168-27.776 100.267-72.619 128-127.787h-128v127.787zM640.896 184.405v129.067h128.683c-27.819-55.723-73.003-101.12-128.683-129.067zM640.896 377.515v129.195h151.083c4.907-21.035 7.851-42.752 7.851-65.28 0-22.016-2.731-43.264-7.339-63.915h-151.595zM927.744 489.429h96v-96h-96v96zM0.256 489.429h95.957v-96h-95.957v96zM854.792 165.106l90.487-90.41-67.792-67.85-90.487 90.41 67.792 67.85zM171.456 165.096l67.78-67.742-90.393-90.444-67.78 67.742 90.393 90.444zM170.128 714.055l-90.448 90.448 67.851 67.851 90.448-90.448-67.851-67.851zM853.823 714.107l-67.745 67.898 90.551 90.346 67.745-67.898-90.551-90.346z" />
<glyph unicode="&#xe90f;" glyph-name="costumes" d="M684.032 753.195l0.213-0.299c-52.651 23.296-110.891 36.437-172.16 36.437s-119.467-13.141-172.16-36.437l0.128 0.299-254.677 206.805v-812.459l426.624-211.541 426.667 211.541v812.459l-254.635-206.805zM317.355 363.307l-128 169.344 258.645-83.925-130.645-85.419zM706.645 363.307l-130.645 85.376 258.645 83.968-128-169.344z" />
<glyph unicode="&#xe910;" glyph-name="dance-instructor" d="M472.789 282.496c0 0 17.408 68.821-22.571 116.565v0l47.787 115.029 254.976-162.859 40.917 63.829-298.197 190.507-0.683-1.024-98.773 40.96-84.267 314.709h-81.835l101.931-380.757-36.352-87.467c-0.043-0.128-5.76-15.915-7.467-48.597 0 0-17.152-133.547 75.605-206.805l-82.261-300.843h83.797l65.28 238.933 227.925-238.933h116.779l0.085 0.171-237.525 249.003-65.152 97.579zM597.077 716.629c0-46.987-38.090-85.077-85.077-85.077s-85.077 38.090-85.077 85.077c0 46.987 38.090 85.077 85.077 85.077s85.077-38.090 85.077-85.077z" />
<glyph unicode="&#xe911;" glyph-name="dentist" d="M987.435 690.901c0 121.728-98.731 220.459-220.459 220.459-47.957 0-91.947-15.445-127.915-41.515-0.213-0.085-0.341-0.085-0.512-0.213-85.291-53.461-178.432 11.904-178.432 11.904s-0.213-0.427-0.256-0.469c-44.587 48.128-107.733 78.763-178.517 78.763-135.125 0-244.693-109.525-244.693-244.651-3.243-111.915 122.709-463.872 174.293-603.051l25.557-77.44c1.109-4.608 2.773-8.832 4.395-13.269l2.261-6.869 0.256 0.256c0.085-0.341 0.384-0.555 0.469-0.768 9.045-19.371 29.184-46.891 29.184-46.891l0.043 0.427c15.275-18.944 38.357-31.403 64.683-31.403 31.445 0 58.411 17.451 72.747 43.093 0.213 0.555 0.427 0.939 0.683 1.195 4.139 7.467 7.211 15.744 8.747 24.491 0.043 0.256 0.085 0.256 0.171 0.469 15.147 71.595 75.733 326.443 75.733 326.443 0 0.725-0.384 1.28-0.384 2.005 0 1.92 0.811 3.541 1.067 5.333 0.384 3.84 0.768 6.144 0.768 6.144l0.469-0.427c4.821 16.384 19.371 28.416 37.333 28.416 8.576 0 16-3.2 22.571-7.936 0.725-0.299 1.195-0.896 1.92-1.237 9.045-7.381 14.976-17.92 14.976-30.251 0 0 69.76-255.915 78.336-320.171 0.171-0.981 0.469-1.707 0.555-2.688 1.024-9.771 3.584-18.987 7.595-27.435 12.203-28.117 33.195-37.973 42.283-41.088 0.597 0 1.024-0.085 1.579-0.213 9.685-3.925 20.224-6.144 31.104-6.144 25.643 0 48.299 11.648 63.659 29.739h0.213c0 0 0.512 0.683 0.768 0.896 0.213 0.213 0.384 0.427 0.512 0.64 2.987 3.499 16.043 19.925 24.661 39.68h0.128l0.896 1.92c0.085 0.171 0.171 0.299 0.171 0.384 0.043 0.128 0.043 0.213 0.043 0.299l3.157 7.552c0.64 0.896 1.109 1.621 1.408 2.645h0.299l0.725 2.005c0.256 0.512 0.427 1.109 0.555 1.28l13.995 38.955-0.299-0.085c75.051 170.112 119.040 463.061 134.272 579.115 3.755 15.787 6.229 32.469 6.229 49.707z" />
<glyph unicode="&#xe912;" glyph-name="designer-handbags" d="M960.427 386.56c-126.976-89.472-281.472-142.293-448.384-142.293-167.040 0-321.451 52.821-448.384 142.293l-63.488-448.299h1023.659l-63.403 448.299zM512 332.16c164.523 0 315.52 57.643 434.389 153.472l-5.76 40.96c0 0.896 0.085 1.707 0.085 2.475 0 42.027-6.272 82.475-17.621 120.789l-0.64 4.907h-0.555c-53.803 175.403-216.917 302.976-409.899 302.976s-356.224-127.573-409.899-302.976h-0.597l-0.683-4.907c-11.221-38.315-17.579-78.72-17.579-120.832 0-0.768 0.085-1.536 0.085-2.475l-5.76-40.96c118.869-95.829 269.824-153.429 434.432-153.429zM614.4 498.517c0-28.117-22.912-51.072-51.243-51.072h-102.4c-28.288 0-51.157 22.869-51.157 51.072v2.219c0 28.245 22.912 51.115 51.157 51.115h102.4c28.331 0 51.243-22.869 51.243-51.115v-2.219zM512.085 857.003c136.533 0 253.397-83.541 302.763-202.325h-605.696c49.365 118.869 166.315 202.325 302.933 202.325z" />
<glyph unicode="&#xe913;" glyph-name="doctor" d="M404.992 743.381h214.016c19.157 0 34.645 15.531 34.645 34.688v60.672c0 19.2-15.488 34.731-34.645 34.731h-43.733c1.835 6.016 3.115 12.331 3.115 18.987 0 36.651-29.739 66.389-66.389 66.389s-66.389-29.696-66.389-66.389c0-6.699 1.323-12.928 3.115-18.987h-43.733c-19.2 0-34.688-15.573-34.688-34.731v-60.672c0-19.243 15.488-34.688 34.688-34.688zM512 929.536c20.48 0 37.12-16.64 37.12-37.035 0-20.437-16.597-37.035-37.12-37.035s-37.035 16.555-37.035 37.035c-0.043 20.48 16.512 37.035 37.035 37.035zM704.085 794.069v-51.328c0-25.984-20.992-47.019-46.976-47.019h-290.219c-25.941 0-47.061 21.035-47.061 47.019v51.328h-97.579v-856.917h579.499v856.917h-97.664zM616.704 128.768h-70.912v-70.827h-67.669v70.827h-70.912v67.669h70.912v70.912h67.669v-70.912h70.912v-67.669zM679.851 362.069h-335.744v67.669h335.744v-67.669zM679.851 503.509h-335.744v67.669h335.744v-67.669z" />
<glyph unicode="&#xe914;" glyph-name="esthetician" d="M400 769.835v51.84c15.317 9.771 26.069 26.112 26.069 45.653v36.736c0 30.421-24.576 55.168-55.083 55.168h-163.669c-30.507 0-55.125-24.704-55.125-55.168v-36.736c0-19.541 10.795-35.925 26.112-45.653v-51.84c-96.085-42.624-163.243-138.496-163.243-250.411 0-0.725 0.085-1.365 0.128-2.091h-0.085v-534.784c0-25.259 20.437-45.781 45.653-45.781h456.96c25.173 0 45.696 20.395 45.696 45.781v537.003c-0.171 111.787-67.413 207.659-163.413 250.283zM470.016 345.984v-281.429c-4.437-20.651-21.845-36.352-43.776-36.352h-274.133c-25.259 0-45.739 20.437-45.739 45.653v461.44c8.107 93.44 85.461 166.997 180.864 166.997 100.992 0 182.741-81.835 182.741-182.741v-173.568zM165.035 272.768v-123.989c0-34.176 27.819-62.080 62.080-62.080h123.989c34.347 0 62.080 27.904 62.080 62.080v257.792h-248.149v-133.803zM996.352 327.936c-300.245 57.813-332.331-119.637-325.035-230.229 94.165 99.413 218.923 114.645 218.923 114.645l-60.629-60.715-220.757-214.827c12.885 2.005 24.32 5.333 35.669 8.491l-0.597-1.024c0 0 218.411 56.235 254.208 75.605 0.299 0.213 0.384 0.299 0.725 0.512 77.397 32.043 137.088 113.92 97.493 307.541z" />
<glyph unicode="&#xe915;" glyph-name="fishing" d="M196.224 352.896c-103.765-73.344-162.219-166.229-162.219-166.229s61.141-90.197 166.016-162.475c67.456 24.149 115.925 87.936 115.925 163.755 0 77.141-50.347 141.824-119.723 164.949zM167.339 188.544c-22.101 0-39.936 17.792-39.936 39.979 0 22.059 17.835 39.893 39.936 39.893s39.936-17.877 39.936-39.893c0-22.187-17.92-39.979-39.936-39.979zM989.995 307.712l-113.237-85.12c-239.915 243.925-443.861 246.229-590.891 181.419 69.547-46.635 115.371-125.867 115.371-215.979 0-88.789-44.544-166.912-112.469-213.973 150.315-66.645 356.736-67.541 590.080 177.792l111.147-83.541v239.403zM921.259 960v-332.075c0-56.96-46.251-103.125-103.253-103.125-55.339 0-100.011 43.605-102.571 98.304h-0.427v3.499c0 0.469-0.171 0.896-0.171 1.323h69.077l-137.344 171.904v-165.547h0.085c-0.341-2.133-0.683-4.224-0.683-6.4 0-94.976 76.928-171.947 171.904-171.947s171.904 76.971 171.904 171.947v332.117h-68.523z" />
<glyph unicode="&#xe916;" glyph-name="football-court" d="M511.787 959.573c-282.667 0-511.787-229.12-511.787-511.787 0-282.709 229.12-511.787 511.787-511.787 282.709 0 511.787 229.205 511.787 511.787 0 282.667-229.077 511.787-511.787 511.787zM385.877 51.499l41.429 44.8-91.52 114.176-136.789 44.032-24.405-49.237c-48.768 67.456-77.824 150.016-78.464 239.445l49.664-28.373 90.581 114.944 12.075 143.275-72.875 17.237c50.603 69.589 122.069 122.923 205.44 150.571l-8.107-58.453 140.245-41.387 137.472 41.899-8.661 58.155c83.797-27.605 155.52-81.152 206.251-151.125l-69.973-14.549 8.107-146.048 85.845-115.413 55.168 29.568c-0.555-87.595-28.373-168.704-75.179-235.52l-24.747 48.085-138.496-46.805-88.235-113.451 41.899-43.989c-41.216-13.696-85.077-21.333-130.859-21.333-43.904-0.043-86.144 6.869-125.867 19.499zM672.043 492.032l-160.256 116.395-159.232-116.395 59.136-180.779h199.125z" />
<glyph unicode="&#xe917;" glyph-name="gadgets" d="M979.243 391.851h-24.789l1.067 47.104h-1.152l1.152 20.864-1.067-0.896c0.427 7.68 1.067 15.232 1.067 22.997 0 245.163-198.699 443.819-443.819 443.819-240.64 0-436.139-191.616-443.179-430.549l-0.683 1.963 0.171-11.221c0-1.365-0.171-2.645-0.171-4.011 0-2.859 0.213-5.675 0.427-8.491l0.128-8.149h-0.512l0.939-20.949 0.981-52.48h-24.96c-24.533 0-44.373-21.205-44.373-47.616v-169.771c0-26.368 19.84-47.573 44.373-47.573h29.867l1.621-88.704h117.461v-24.107c0-24.235 19.925-43.691 44.416-43.691h94.336c24.491 0 44.416 19.456 44.416 43.691v402.603c0 24.149-19.883 43.691-44.416 43.691h-94.464c-24.491 0-44.416-19.541-44.416-43.691v-24.107h-33.195l-1.109 42.795-0.939 13.568 0.597 0.085c-1.067 10.965-2.219 21.717-2.219 32.896 0 196.096 158.933 355.029 355.029 355.029 196.011 0 355.072-158.976 355.072-355.029 0-2.347-0.341-4.608-0.597-6.955l0.427-0.085-2.731-82.56h-35.029v24.277c0 24.064-19.797 43.691-44.416 43.691h-94.379c-24.619 0-44.459-19.627-44.459-43.691v-402.603c0-24.235 19.84-43.691 44.459-43.691h94.379c24.619 0 44.416 19.456 44.416 43.691v24.107h117.845v23.552l1.493 65.152h30.891c24.619 0 44.459 21.12 44.459 47.573v169.685c-0.043 26.496-19.883 47.787-44.416 47.787z" />
<glyph unicode="&#xe918;" glyph-name="games" d="M1017.216 284.757h0.213l-69.973 295.381c-1.195 6.485-2.773 12.928-4.48 19.285l-0.725 2.603c-26.88 90.795-111.019 157.184-210.517 157.184-44.885 0-86.571-13.525-121.387-36.608h-196.565c-34.731 23.040-76.459 36.565-121.301 36.565-109.44 0-199.936-80.085-216.661-184.832h-0.085l-71.723-298.624c-0.939-3.413-1.792-6.699-2.517-10.283l-0.683-2.688 0.341-0.427c-0.768-5.077-1.621-10.197-1.621-15.531 0-60.715 49.152-109.867 109.781-109.867 27.605 0 52.523 10.453 71.637 27.307v-0.085l193.323 158.933h275.371l187.904-153.259c5.376-5.504 11.52-10.325 18.133-14.635l3.2-2.645v0.64c16.427-10.027 35.072-16.256 55.552-16.256 60.715 0 109.867 49.195 109.867 109.781 0.171 13.44-2.56 26.197-7.083 38.059zM742.229 680.107c26.965 0 48.768-21.888 48.768-48.896s-21.76-48.811-48.768-48.811c-27.008 0-48.896 21.845-48.896 48.853 0.085 26.965 21.888 48.853 48.896 48.853zM430.123 535.083c0-26.965-21.803-48.896-48.853-48.896h-48.811v-48.768c0-26.965-21.803-48.896-48.811-48.896s-48.896 21.888-48.896 48.896v48.725h-48.853c-27.008 0-48.896 21.931-48.896 48.896v0.043c0 26.965 21.803 48.811 48.896 48.811h48.853v48.811c0 27.008 21.845 48.853 48.896 48.853 26.965 0 48.811-21.845 48.811-48.853v-48.853h48.811c27.051 0.085 48.853-21.803 48.853-48.768v0zM642.389 484.693c-26.923 0-48.725 21.888-48.725 48.896 0 26.965 21.717 48.853 48.725 48.853 27.051 0 48.896-21.888 48.896-48.853s-21.888-48.896-48.896-48.896zM742.229 387.072c-27.008 0-48.896 21.888-48.896 48.896 0 26.965 21.845 48.811 48.896 48.811 26.965 0 48.768-21.888 48.768-48.811-0.043-27.008-21.845-48.896-48.768-48.896zM839.893 484.693c-26.965 0-48.896 21.888-48.896 48.896 0 26.965 21.803 48.853 48.896 48.853s48.853-21.888 48.853-48.853-21.845-48.896-48.853-48.896z" />
<glyph unicode="&#xe919;" glyph-name="golf" d="M843.179 628.395c0-182.905-148.274-331.179-331.179-331.179s-331.179 148.274-331.179 331.179c0 182.905 148.274 331.179 331.179 331.179s331.179-148.274 331.179-331.179zM371.2 234.197v-116.053h40.789l100.011-181.717 96.683 178.944 2.816 2.773h41.259v116.139c-42.752-20.139-90.368-31.701-140.757-31.701-50.432-0.043-98.005 11.563-140.8 31.616z" />
<glyph unicode="&#xe91a;" glyph-name="hairdresser" d="M872.32 913.877c-16.384 4.864-32.725 7.168-48.896 8.107l-12.885-42.624-11.435-37.888-70.187-233.216-10.923-36.48-10.965 36.48-70.229 233.216-11.307 37.888-12.885 42.624c-16.384-0.939-32.725-3.243-48.896-8.107-112.213-33.792-175.787-152.107-142.080-264.363 28.885-95.957 119.595-155.733 215.424-150.187l29.568-98.347-127.104-422.4 3.84-1.067c90.453-22.699 117.675 63.232 117.675 63.232l57.045 189.44 57.003-189.44c0 0 27.051-85.973 117.717-63.232l3.797 1.067-127.104 422.4 29.525 98.347c95.829-5.589 186.581 54.229 215.296 150.187 33.877 112.256-29.781 230.571-141.995 264.363zM498.816 672.811c-15.829 52.907 3.243 107.819 43.691 140.416l70.272-233.301c-51.712 4.736-97.963 39.979-113.963 92.885zM937.173 672.811c-15.957-52.821-62.208-88.107-113.963-92.928l70.229 233.259c40.533-32.512 59.648-87.467 43.733-140.331zM315.776 810.581v111.744h-315.179v-948.651h315.179v111.872h-224.981v46.336h224.981v90.24h-224.981v45.995h224.981v90.112h-224.981v46.208h224.981v90.112h-224.981v45.952h224.981v90.155h-224.981v43.307h224.981v90.112h-224.981v46.507z" />
<glyph unicode="&#xe91b;" glyph-name="health-club" d="M929.195 487.936c0 126.208-93.312 228.565-208.213 228.565-5.717 0-11.051-1.237-16.555-1.792-1.963 0-3.371 0.683-5.419 0.469-42.411-4.011-109.227-23.851-150.528-37.205 0 0 0 0-0.085 0-36.821-11.392-70.4 0-70.4 0v0c-40.064 13.739-105.643 34.347-141.611 35.541-1.195 0.043-2.176-0.299-3.328-0.299-9.856 1.579-19.627 3.2-29.952 3.2-115.029 0-208.299-102.315-208.299-228.608 0-28.16 5.248-54.827 13.739-79.829l-0.555-0.299 2.005-4.736c1.451-3.84 3.029-7.424 4.651-11.179l147.755-355.797h0.512c15.787-57.515 63.915-99.669 121.387-99.669 9.941 0 19.328 1.621 28.544 4.096l0.085-0.299c0 0 1.109 0.341 1.664 0.597 1.024 0.341 2.133 0.853 3.157 1.152 15.36 5.163 65.707 21.845 91.904 23.296 3.029 0.171 6.059 0.341 9.173 0.469 26.368-1.152 74.24-19.456 74.24-19.456l0.299 0.128c14.379-6.229 29.952-9.899 46.293-9.899 53.845 0 99.541 36.608 118.272 88.235v0l150.4 365.056c2.091 4.992 4.395 9.856 6.187 15.019l2.475 6.016-0.683 0.512c7.851 24.064 12.885 49.664 12.885 76.715zM299.051 908.459c-4.821-194.475 172.331-172.288 172.331-172.288 21.419 205.696-172.331 172.288-172.331 172.288zM503.595 735.872c0 0 227.413-28.501 221.227 221.269 0-0.043-248.875 42.837-221.227-221.269z" />
<glyph unicode="&#xe91c;" glyph-name="hospital" d="M322.176 960v-393.515h381.312v393.515h230.784v-1024h-230.784v428.459h-381.312v-428.459h-232.405v1024h232.405z" />
<glyph unicode="&#xe91d;" glyph-name="hotel" d="M37.803 86.229h948.352v-149.76h-948.352v149.76zM856.32 229.931v26.24c0 0.256 0.085 0.512 0.085 0.768s-0.085 0.512-0.085 0.768v2.005h-0.085c-1.237 169.472-126.592 309.163-289.493 333.568v57.856h90.069v92.032c-0.768 19.456-16.341 35.072-36.181 35.072h-217.557c-20.181 0-36.523-16.341-36.523-36.48v-90.624h90.624v-59.221c-156.075-27.179-275.541-160.597-281.131-323.371h-0.341v-7.509c0-1.323-0.213-2.901-0.213-4.181 0-1.408 0.171-2.901 0.213-4.267v-22.741h-47.317v-72.917h767.104v72.917h-39.168zM256.245 762.755l-52.034-51.99-77.292 77.357 52.034 51.99 77.292-77.357zM849.115 835.47l51.923-51.981-77.399-77.311-51.923 51.981 77.399 77.311zM475.52 959.488h72.96v-109.525h-72.96v109.525z" />
<glyph unicode="&#xe91e;" glyph-name="hunting" d="M589.269 447.957c0-43.57-35.321-78.891-78.891-78.891s-78.891 35.321-78.891 78.891c0 43.57 35.321 78.891 78.891 78.891s78.891-35.321 78.891-78.891zM926.251 486.656h-218.752v-77.227h315.435v77.227zM589.269 143.104v-81.109c154.368 31.317 275.84 152.704 307.2 307.072h-81.152c-28.501-110.549-115.499-197.291-226.048-225.963zM470.955 168.661v-233.259h77.227v315.435h-77.227zM205.611 369.067h-81.323c31.403-154.283 152.747-275.925 307.2-307.285v81.323c-110.592 28.544-197.291 115.499-225.877 225.963zM232.789 409.429h83.669v77.227h-315.392v-77.227h196.523zM431.488 752.725v81.323c-154.453-31.36-275.797-152.789-307.243-307.2h81.152c28.544 110.635 115.499 197.291 226.091 225.877zM548.949 680.448v280.149h-77.099v-315.435h77.099zM815.275 526.848h81.152c-31.275 154.411-152.832 275.84-307.2 307.2v-81.323c110.592-28.501 197.589-115.243 226.048-225.877z" />
<glyph unicode="&#xe91f;" glyph-name="lawyer" d="M603.648 948.736l-55.808-55.808c-15.744-15.744-15.744-41.088 0-56.789l140.971-140.971c15.573-15.659 41.045-15.659 56.619 0l55.979 55.851c15.531 15.659 15.531 41.088 0 56.747l-141.056 140.971c-15.616 15.701-41.003 15.701-56.704 0zM269.824 608.683l-55.936-55.808c-15.659-15.744-15.616-41.088 0-56.747l141.013-140.971c15.616-15.573 41.045-15.573 56.704 0l55.893 55.851c15.701 15.659 15.701 41.045 0 56.789l-140.928 140.885c-15.659 15.701-41.088 15.701-56.747 0zM881.451 398.421l-24.789-24.875-240 240 52.011 51.968-144.213 144.256-169.088-169.088 144.171-144.213 50.944 50.859 239.829-240-22.4-22.4c-15.659-15.659-15.659-41.045 0-56.704l56.704-56.789c15.787-15.659 41.173-15.659 56.832 0l113.536 113.493c15.659 15.659 15.659 40.96 0 56.704l-56.832 56.747c-15.659 15.701-40.96 15.701-56.704 0.043zM575.701 93.739v75.477c0 25.728-20.821 46.677-46.464 46.677h-363.392c-25.685 0-46.549-20.907-46.549-46.677v-75.477h-102.059v-158.251h654.549v158.251h-96.085z" />
<glyph unicode="&#xe920;" glyph-name="library" d="M68.267 960.64h207.445v-151.893h-207.445v151.893zM68.267 706.133h207.445v-53.291h-207.445v53.291zM68.267 599.211h207.445v-663.083h-207.445v663.083zM376.277 860.203h160.427v-207.275h-160.427v207.275zM376.277 547.883h160.427v-611.712h-160.427v611.712zM607.98 646.257l-26.256 205.553 256.635 32.781 26.256-205.553-256.635-32.781zM878.124 574.978l77.632-606.799-256.847-32.86-77.632 606.799 256.847 32.86z" />
<glyph unicode="&#xe921;" glyph-name="massage" d="M51.584 753.28h253.141c27.947 0 50.645 22.656 50.645 50.645v50.773c0 27.989-22.699 50.645-50.645 50.645h-253.141c-27.989 0-50.645-22.656-50.645-50.645v-50.773c-0.043-28.032 22.656-50.645 50.645-50.645zM972.501 702.677h-920.917c-27.989 0-50.645-22.699-50.645-50.603v-104.405c0-27.904 22.699-50.688 50.645-50.688h54.528v-408.235h-58.923v-98.091h209.493v98.091h-41.429v408.235h598.912v-408.235h-44.843v-98.091h204.672v98.091h-50.688v408.235h49.067c27.989 0 50.688 22.741 50.688 50.688v104.405c0.043 27.947-22.656 50.603-50.56 50.603z" />
<glyph unicode="&#xe922;" glyph-name="music-band" d="M764.416 555.776v-58.581c0-138.069-111.659-249.899-249.856-249.899h-5.163c-137.941 0-249.771 111.829-249.771 249.899v58.581h-80.171v-71.595c0-168.491 126.592-307.157 289.835-326.656v-67.669h-81.707v-68.907h252.416v68.907h-85.248v67.669c163.328 19.413 289.835 158.165 289.835 326.656v71.595h-80.171zM639.573 423.211h-7.083v65.749h68.181c0.427 4.608 1.408 9.003 1.408 13.696v59.221h-63.019v65.749h63.019v59.307c0 4.651-0.981 9.045-1.408 13.611h-61.099v65.749h44.331c-29.995 64.043-94.592 108.757-169.984 108.757h-3.883c-75.52 0-140.032-44.715-170.027-108.757h44.416v-65.749h-61.141c-0.384-4.565-1.408-8.96-1.408-13.611v-59.307h62.123v-65.749h-62.123v-59.221c0-4.693 1.024-9.088 1.365-13.696h61.184v-65.749h-44.373c29.995-64.043 94.507-108.715 169.984-108.715h3.883c75.435 0 139.947 44.672 169.941 108.715h-44.288z" />
<glyph unicode="&#xe923;" glyph-name="nails-salon" d="M600.704 746.368h-169.557v93.568h-199.893v-93.525h-172.8c-32.427 0-58.624-26.24-58.624-58.624v-8.832l45.312-233.771c0.043 0 0.171 0 0.213-0.128l90.624-454.187 0.469 0.085c8.107-23.168 29.44-39.893 55.211-39.893h279.168c26.155 0 47.659 17.28 55.467 40.704l0.64-0.299 91.307 454.272h0.128l40.96 206.805v35.157c-0.043 32.427-26.368 58.667-58.624 58.667zM964.693 407.253h-6.869v272.469h-96.64v-272.469h-7.211c-32.939 0-59.435-26.197-59.435-58.624v-398.037h229.547v398.037c-0.085 32.299-26.539 58.624-59.392 58.624zM860.757 722.048h96.597v14.251l39.253 209.109h-168.491l32.64-209.109z" />
<glyph unicode="&#xe924;" glyph-name="party-supplies" d="M358.016 189.739c141.483 31.829 249.045 185.429 249.045 370.816 0 208.341-135.808 377.301-303.189 377.301-167.467 0-303.147-168.832-303.147-377.301 0-185.387 107.477-338.987 248.96-370.816v-12.843l-55.893-101.931h219.947l-55.765 101.931 0.043 12.843zM83.2 560.64c0 151.637 98.688 274.517 220.629 274.517 121.856 0 220.587-122.837 220.587-274.517 0-151.723-98.688-274.645-220.587-274.645-121.856 0-220.629 122.923-220.629 274.645zM1023.232 443.819c0 208.427-135.637 377.216-303.147 377.216-43.221 0-84.309-11.435-121.429-31.701 15.744-22.016 43.904-88.405 43.904-88.405l0.469-0.768c24.064 11.307 50.005 18.176 77.184 18.176 121.899 0 220.715-122.795 220.715-274.517s-98.773-274.603-220.715-274.603c-64.256 0-121.728 34.901-162.219 89.6-0.085-0.171-0.299-0.341-0.64-0.597-35.243-34.517-69.547-53.504-70.784-54.187 44.715-67.157 107.563-114.987 179.328-131.157v-12.843l-55.808-101.931h220.032l-55.893 101.931v12.843c141.525 31.957 249.003 185.728 249.003 370.944z" />
<glyph unicode="&#xe925;" glyph-name="personal-trainer" d="M511.915 640.171v-273.707l229.205-149.12c27.947 42.923 44.587 94.037 44.587 149.12 0.085 151.125-122.581 273.707-273.792 273.707zM907.392 616.021l11.221 11.221 11.221 11.264c21.163 21.163 21.163 55.381 0 76.629l-76.672 76.629c-21.163 21.205-55.467 21.163-76.629 0l-11.221-11.221-11.307-11.179-24.747-24.789c-41.515 24.021-87.211 41.557-135.979 50.773v34.389c29.952 0 54.272 24.32 54.272 54.229v21.803c0 29.909-24.32 54.229-54.272 54.229h-162.603c-29.952 0-54.272-24.32-54.272-54.229v-21.845c0-29.952 24.32-54.229 54.272-54.229v-34.347c-200.576-38.016-352.341-214.059-352.341-425.728-0.085-239.573 194.091-433.664 433.579-433.664 239.573 0 433.749 194.091 433.749 433.664 0 81.536-22.656 157.696-61.867 222.848l23.595 23.552zM511.915 45.184c-179.157 0-324.395 145.28-324.395 324.437 0 179.2 145.237 324.48 324.395 324.48 179.115 0 324.437-145.195 324.437-324.48 0-179.157-145.323-324.437-324.437-324.437z" />
<glyph unicode="&#xe926;" glyph-name="pet-care" d="M378.539 372.736c-14.293 0-25.771-11.52-25.771-25.557 0-14.165 11.563-25.6 25.771-25.6 14.080 0 25.472 11.435 25.472 25.6-0.043 14.080-11.435 25.557-25.472 25.557zM717.653 866.432v20.821l48.683 73.6h-508.544l46.336-73.6v-22.016c-179.115-79.744-304.085-258.944-304.085-467.627 0-139.435 55.893-265.6 146.261-358.016l59.52-75.563v-28.885h613.333v28.885l58.581 75.691c90.411 92.288 146.176 218.539 146.176 357.888 0.171 209.621-125.909 389.589-306.261 468.821zM320.171 800.939c22.357 0 40.533-18.133 40.533-40.576 0-22.315-18.133-40.533-40.533-40.533-22.315 0-40.533 18.133-40.533 40.533 0 22.443 18.176 40.576 40.533 40.576zM157.013 442.667c-30.037 0-54.315 24.363-54.315 54.357s24.363 54.357 54.315 54.357c30.037 0 54.357-24.363 54.357-54.357s-24.32-54.357-54.357-54.357zM260.437 604.757c0 48.299 39.125 87.339 87.381 87.339 48.299 0 87.467-39.125 87.467-87.339 0-48.256-39.168-87.467-87.467-87.467-48.256 0.043-87.381 39.168-87.381 87.467zM399.317 215.979c-67.285 46.379-106.581 104.363-106.581 104.363s37.632 59.605 104.149 106.624c44.544-14.848 76.885-56.405 76.885-105.813 0.085-48.597-31.104-89.6-74.453-105.173zM835.243 297.941c-149.973-157.525-282.411-156.928-378.837-114.219 43.563 30.123 72.149 80.384 72.149 137.515 0 57.728-29.355 108.672-74.027 138.539 94.464 41.728 225.451 40.235 379.563-116.437l72.576 54.656v-153.728l-71.424 53.675z" />
<glyph unicode="&#xe927;" glyph-name="photo-equipments" d="M512 417.28c93.653 0 169.472 75.904 169.472 169.515 0 93.568-75.904 169.515-169.472 169.515-93.611 0-169.515-75.947-169.515-169.515 0-93.696 75.819-169.515 169.515-169.515zM512 688.427c56.064 0 101.632-45.525 101.632-101.717 0-56.107-45.568-101.589-101.632-101.589-56.192 0-101.675 45.483-101.675 101.589 0 56.192 45.525 101.717 101.675 101.717zM884.907 887.723l-206.848-131.413 141.099 203.435h-612.181l137.259-205.099c42.923 42.923 102.229 69.547 167.808 69.547 131.072 0 237.227-106.24 237.227-237.355 0-130.987-106.155-237.312-237.227-237.312-131.115 0-237.312 106.283-237.312 237.312 0 65.536 26.496 124.928 69.504 167.765l-205.141 134.443v-610.261l205.056 140.203-135.893-205.141h257.237l-279.168-277.589h98.859l191.872 190.805v-190.805h69.717v199.083l200.064-199.083h98.816l-279.253 277.589h250.581l-139.008 203.435 206.848-138.368v608.811h0.085z" />
<glyph unicode="&#xe928;" glyph-name="photographer" d="M969.771 757.803h-100.011l-68.267 107.776c0 0-0.427-0.427-0.427-0.512-8.661 15.957-25.003 27.264-44.501 27.264h-206.251c-20.181 0-37.163-11.904-45.568-28.8l-0.299 0.171-68.267-105.899h-131.072v31.445c0 28.245-22.912 51.157-51.157 51.157h-71.424c-28.245 0-51.157-22.912-51.157-51.157v-31.445h-77.099c-29.696 0-53.888-24.021-53.888-53.845v-646.4c0-29.781 24.149-53.888 53.888-53.888h915.541c29.653 0 53.76 24.064 53.76 53.888v646.4c0 29.781-24.064 53.845-53.803 53.845zM305.749 601.472c0-28.331-22.912-51.157-51.157-51.157h-72.747c-28.245 0-51.157 22.827-51.157 51.157v0.768c0 28.245 22.955 51.157 51.157 51.157h72.747c28.245 0 51.157-22.912 51.157-51.157v-0.768zM653.013 124.971c-141.312 0-255.829 114.645-255.829 255.829 0 141.312 114.517 255.787 255.829 255.787 141.269 0 255.829-114.475 255.829-255.787 0-141.227-114.603-255.829-255.829-255.829z" />
<glyph unicode="&#xe929;" glyph-name="pillates-instructor" d="M634.155 835.669c0-67.464-54.691-122.155-122.155-122.155s-122.155 54.691-122.155 122.155c0 67.464 54.691 122.155 122.155 122.155s122.155-54.691 122.155-122.155zM962.389 290.645l-176.299 79.019-50.987 187.179-7.68 33.237h-0.299c-3.499 13.824-13.867 24.832-27.648 28.629l-4.011 1.536-28.715 12.245c-6.101 2.645-14.037 5.291-24.832 7.723-139.221 31.701-255.488 0-255.488 0-21.888-4.779-58.709-27.093-58.709-27.093v0l-3.328-1.493 0.213-0.469c-9.856-5.248-17.749-13.867-20.992-24.832v0l-0.64-2.176c-0.085-0.427-0.341-0.939-0.384-1.365l-54.229-186.368-10.112-28.032-176.64-77.696 37.589-85.632 54.4 24.021-24.235-54.656 249.6-110.421-52.181-22.997 41.643-94.165 137.515 60.885 157.013-69.547 41.515 94.080-71.467 31.744 269.227 119.125-22.443 50.475 47.701-21.333 34.901 78.379zM258.347 230.016l-51.371 22.699 106.112 46.677-0.299 0.896 48.597 133.76 24.875-158.592-127.915-45.44zM777.984 240.896l-136.192 34.432 21.163 147.328 0.981 16.512 53.76-131.157-0.683-1.408 1.365-0.768 0.299-0.512 0.427 0.171 101.76-45.696-42.88-18.901z" />
<glyph unicode="&#xe92a;" glyph-name="plane-tickets" d="M1020.715 544l-136.235 133.12c-41.003-41.813-108.245-42.539-150.229-1.621-41.856 41.003-42.624 108.288-1.707 150.272l-44.971 44.032c0 0 0-0.043-0.085-0.085l-91.221 89.088-195.712-200.235 70.997-64.043 52.907-51.712-44.459-45.483-60.587 59.179-0.256-0.213-61.824 57.941 0.512 0.512-354.56-362.837 424.491-414.677 357.632 365.909-2.859 3.243-72.875 66.603-45.141 44.075 44.459 45.44 53.845-52.523 46.080-45.397 1.536-1.749 16.981-16.597-0.085-0.171 193.365 197.931zM579.029 214.912c-3.584-10.155-14.592-15.488-24.704-12.075-3.029 0.981-5.547 2.987-7.552 5.163l-125.355 85.248-20.053-57.984 35.157-93.909-0.469-1.408-1.579-4.48-4.053-11.989-18.347 6.4-9.643 3.413-43.904 53.845-1.835-5.205-2.859-8.149-2.773-8.064c-2.048-5.931-7.68-9.259-13.611-9.173-1.365 0-2.731 0.171-4.053 0.683 0 0-0.683 0.256-1.621 0.981-0.683 0.213-1.365 0.555-1.963 0.939-4.779 3.584-7.125 9.771-5.035 15.573l2.816 8.149 2.816 8.064 1.749 5.163-75.733-12.245-2.389 0.853-18.347 6.315 4.096 11.904 1.963 5.589 86.485 52.181 20.096 57.984-150.4 10.069c-3.029-0.341-6.144-0.341-9.216 0.683-10.112 3.584-15.445 14.592-11.989 24.661 2.261 6.485 7.765 10.752 14.080 12.245v0.341l36.096 8.917 158.549 50.261 8.491 24.832 2.432 6.784 14.464 41.856c7.040 20.181 28.971 30.933 49.195 23.893 20.181-6.997 30.891-28.971 23.893-49.195l-14.507-41.813-2.347-6.784-8.576-24.832 114.603-163.072-0.085-0.085 4.309-6.229-0.085-0.341c2.731-4.779 3.669-10.539 1.792-15.957zM616.832 463.573l-91.563 89.557 44.331 45.483 91.648-89.472-44.416-45.568z" />
<glyph unicode="&#xe92b;" glyph-name="planes" d="M1005.824 341.888l0.085 0.512-14.763 10.88 0.085 0.299-387.413 279.808v186.368c0 51.2-41.685 92.715-92.8 92.715-51.285 0-92.757-41.557-92.757-92.715v-186.411l-319.659-238.208-74.88-48.683 0.256-0.768c-13.013-8.277-22.229-22.101-22.229-38.656 0-25.685 20.693-46.507 46.464-46.507 7.808 0 14.763 2.432 21.291 5.845l348.757 94.891v-147.157l-155.093-185.856v-44.587h52.565l162.005 87.125v-53.717c0-15.019 10.069-27.179 23.68-31.36 1.664-0.683 3.456-0.768 5.205-1.024 2.603-0.64 4.437-0.896 4.437-0.896 3.328 0 6.656 0.768 9.643 1.963 13.483 4.224 23.595 16.384 23.595 31.36v54.144l141.739-87.723h70.912v45.269l-153.088 185.301v147.157l350.763-94.933c6.485-3.371 13.397-5.803 21.163-5.803 25.771 0 46.507 20.821 46.507 46.507-0.128 14.080-6.613 26.283-16.469 34.859z" />
<glyph unicode="&#xe92c;" glyph-name="restaurant" d="M509.355 452.565c-255.659 0-426.411-87.68-426.411-87.68-0.043-236.885 192.128-429.056 429.056-429.056 236.843 0 429.056 192.171 429.056 429.099 0.043 0-176 87.637-431.701 87.637zM510.677 321.408c-195.755 0.683-364.757 38.827-364.757 38.827s146.219 48.256 363.392 48.256c217.259 0 366.037-48.256 366.037-48.256s-168.832-39.552-364.672-38.827zM407.936 874.027l16.384-41.131 88.832-224.256 6.613-16.811 13.781-34.645c4.821-38.528-18.773-60.501-18.773-60.501l79.701 31.616 0.128 0.853c19.285 9.643 28.757 31.872 21.205 52.395l0.299 0.085-16.555 41.856-6.656 16.768-81.92 206.805-6.955 17.451-4.693 11.861c-20.992 52.949 12.971 83.797 12.971 83.797l-79.744-31.616c-21.589-8.619-32.128-32.683-24.32-54.357l-0.299-0.171zM633.472 750.123l10.923-27.605 4.608-11.691 59.435-150.187 9.259-23.211c3.285-25.899-12.672-40.661-12.672-40.661l53.675 21.205v0.597c12.971 6.485 19.2 21.419 14.379 35.157l0.085 0.043-11.136 28.117-4.437 11.264-55.083 138.88-4.565 11.691-3.072 8.021c-14.165 35.541 8.704 56.277 8.704 56.277l-53.675-21.248c-14.464-5.803-21.504-22.016-16.341-36.523l-0.085-0.128zM306.261 750.123l11.008-27.605 4.608-11.691 59.477-150.144 9.259-23.211c3.243-25.899-12.672-40.661-12.672-40.661l53.632 21.205 0.043 0.597c12.971 6.485 19.285 21.419 14.336 35.157l0.128 0.043-11.136 28.075-4.437 11.264-55.040 138.88-4.608 11.691-3.157 7.979c-14.080 35.584 8.747 56.277 8.747 56.277l-53.632-21.205c-14.464-5.76-21.589-21.973-16.341-36.523l-0.213-0.128z" />
<glyph unicode="&#xe92d;" glyph-name="shoes" d="M1023.744 641.109c-0.256 4.352-0.683 8.661-0.896 13.44-8.021 187.605-129.323 266.752-180.907 292.096-34.261-46.293-130.347-247.424-195.413-407.211-65.237-160.043-128.896-245.973-247.467-290.389-80.853-30.379-154.411-13.952-193.152-0.597l-25.429 10.752c-43.648-19.413-177.536-95.872-180.224-307.669h252.288c19.115-1.195 36.011-1.152 51.157 0h208.896v-0.213h90.24l49.323 124.672c4.181 9.771 8.832 20.608 13.483 32.128v0l139.989 278.016 40.405-430.080v-6.741h47.232l59.349 361.003 65.152 294.4v0.128c3.328 12.373 5.077 24.021 5.973 36.267z" />
<glyph unicode="&#xe92e;" glyph-name="snow-equipments" d="M947.669 181.163c0-62.763-50.901-113.664-113.664-113.664h-68.267v78.336h33.579c21.76 0 39.339 17.067 39.339 37.931v87.253c0.427 0.085 0.768 0.171 1.067 0.256 1.749 0.853 3.584 1.579 5.248 2.347 15.488 6.912 32.256 18.261 45.013 37.333 0.853 1.067 1.323 2.347 2.176 3.413 1.749 2.816 3.243 5.845 4.907 8.917 6.187 11.819 10.069 24.747 11.563 38.315 0.427 2.005 0.896 3.669 1.067 5.675 0.085 0.597 0.171 0.853 0.256 1.408v6.4c0 0.341-0.256 0.768-0.256 1.067-1.067 46.080-30.080 84.949-70.912 100.48 0 0 0 0 0 0.085-0.256 0-0.427 0.128-0.597 0.128-8.576 3.072-17.323 5.035-26.667 6.101-397.099 93.568-427.349 274.261-429.013 313.856v69.547c0 20.907-17.067 37.888-37.888 37.888h-268.501c-20.907 0-37.888-16.981-37.888-37.888l-37.888-483.115 1.621-0.171c-0.597-2.603-1.621-5.248-1.621-8.021v-75.904c0-20.821 17.067-37.931 37.888-37.931v-77.568c0-20.907 17.707-37.845 39.552-37.845h36.267v-78.336h-113.707v-75.733h833.664c104.832 0 189.653 84.736 189.653 189.483h-75.904v-0.085h-0.085zM424.661 67.499h-252.203v78.336h252.203v-78.336zM707.328 67.499h-224.213v78.336h224.213v-78.336z" />
<glyph unicode="&#xe92f;" glyph-name="spa" d="M136.107 495.915h375.979v-560.043h-375.979v560.043zM191.317 685.013c17.792-56.789 70.187-98.219 132.864-98.219 77.141 0 139.733 62.549 139.733 139.691 7.723 71.040-68.949 131.712-97.024 186.069 23.253-44.587-86.357-96.043-42.667 47.573-186.325-169.771-133.461-274.987-133.461-274.987l0.555-0.128zM263.040 759.723c8.789 21.333 26.581 48.341 61.099 79.744-4.736-15.317-5.419-25.557-4.48-32.768-0.043-0.469-0.555-0.896-0.555-1.323 0-1.195 0.981-2.005 1.195-3.072 0.256-0.597 0.469-0.896 0.597-1.323 1.963-5.248 6.229-9.6 12.331-9.6 7.765 0 14.123 6.229 14.123 13.909 0 0.939-0.853 1.493-0.981 2.475 0.384 2.688 0.299 5.419-1.109 8.235 6.827-13.44 19.925-27.691 30.592-42.965 11.179-12.459 18.091-28.629 18.091-46.592 0-14.592-4.523-28.16-12.117-39.339-12.245-18.859-33.451-31.445-57.643-31.445-17.195 0-32.469 6.827-44.331 17.195-4.139 3.413-7.765 7.125-10.923 11.307-0.213 0.299-0.512 0.469-0.64 0.768-8.704 11.648-14.080 25.941-14.080 41.557 0 12.075 3.413 23.339 8.832 33.237zM606.165 401.195h281.728v-465.323h-281.728v465.323zM638.336 546.389c13.269-42.24 52.224-73.131 98.773-73.131 57.387 0 103.979 46.592 103.979 104.021 5.845 52.821-51.328 98.005-72.192 138.453 17.408-33.195-64.171-71.509-31.787 35.413-138.752-126.336-99.243-204.672-99.243-204.672l0.469-0.085zM691.712 601.856c6.443 15.957 19.797 35.968 45.483 59.392-3.456-11.307-4.011-19.029-3.243-24.32-0.085-0.427-0.512-0.683-0.512-1.067 0-0.939 0.853-1.493 0.981-2.347 0.128-0.299 0.299-0.597 0.427-0.896 1.408-3.925 4.651-7.125 9.173-7.125 5.717 0 10.453 4.608 10.453 10.325 0 0.768-0.64 1.109-0.768 1.792 0.299 2.005 0.213 4.053-0.981 6.144 5.12-9.984 14.805-20.651 22.869-31.957 8.405-9.216 13.44-21.333 13.44-34.645 0-10.88-3.243-20.992-9.003-29.269-9.131-14.123-24.917-23.424-43.051-23.424-12.672 0-24.149 5.077-33.024 12.843-2.859 2.432-5.76 5.248-8.021 8.363-0.299 0.213-0.512 0.427-0.597 0.597-6.485 8.661-10.496 19.328-10.496 30.976 0.299 8.96 2.859 17.323 6.869 24.619z" />
<glyph unicode="&#xe930;" glyph-name="sports-coach" d="M37.888 921.6c-60.843-60.843-44.373-175.872 36.693-256.981l220.331 220.288c-81.067 81.067-196.224 97.451-257.024 36.693zM973.867 569.173v0l-1.749 0.939c-7.552 4.523-15.403 7.808-23.68 10.197l-616.747 267.819-220.331-220.288 272.171-624.299c0.64-1.451 1.237-2.816 1.835-4.139l2.091-4.907 0.213 0.555c4.779-9.899 10.837-19.2 18.987-27.221 40.192-40.149 105.387-40.149 145.664 0 40.149 40.235 40.149 105.515 0 145.579v0.213c40.576-40.064 105.813-39.893 146.219 0.512 40.363 40.235 40.448 105.643 0.64 146.261l0.213 0.085c40.491-40.064 105.771-39.893 146.091 0.512 40.277 40.363 40.405 105.643 0.64 146.219l0.128 0.085c40.619-39.808 105.856-39.723 146.133 0.683 40.704 40.491 40.576 106.24 0 146.773-5.845 5.632-12.032 10.325-18.517 14.421z" />
<glyph unicode="&#xe931;" glyph-name="taxies" d="M972.843 528.725h-36.053c-27.733 0-50.176-22.443-50.176-50.133 0-3.285 1.28-6.187 1.877-9.216l-0.427-0.128-130.517 299.136-0.085-0.171c-7.339 18.475-25.301 31.659-46.421 31.659h-398.336c-18.133 0-33.365-10.112-42.112-24.576-0.085 0-0.853 0.171-0.853 0.171l-1.835-4.011c-0.64-1.408-1.237-2.731-1.792-4.181l-128.683-288.555c-0.043 27.648-22.485 50.048-50.133 50.048h-36.139c-27.819 0-50.176-22.443-50.176-50.133 0-23.936 17.024-42.965 39.381-48l0.384-1.109 70.4-10.837c-1.024-3.669-2.091-7.339-2.091-11.349v-268.032c0-22.443 15.019-40.747 35.285-47.104v-94.848c0-27.776 22.485-50.176 50.133-50.176h51.243c27.691 0 50.133 22.357 50.133 50.176v91.819h432.853v-91.776c0-27.776 22.4-50.176 50.176-50.176h51.2c27.733 0 50.176 22.357 50.176 50.176v95.488c18.432 7.381 31.36 25.387 31.36 46.464v268.032c0 3.925-1.067 7.339-1.963 10.923l73.557 11.307 0.427 1.067c22.315 5.12 39.381 24.064 39.381 48 0 27.605-22.485 50.048-50.176 50.048zM200.917 466.432l106.539 255.232h0.896c5.973 21.077 24.533 36.821 47.403 36.821h309.333c22.997 0 41.557-15.701 47.488-36.779l0.811-0.043 105.771-255.232h-618.24zM587.264 837.547h50.176v61.099c0 27.691-22.4 50.176-50.176 50.176h-150.443c-27.691 0-50.176-22.443-50.176-50.176v-61.141l200.619 0.043z" />
<glyph unicode="&#xe932;" glyph-name="tenis-court" d="M415.659 218.667c-52.011-90.197-21.248-205.44 68.992-257.536 90.112-52.053 205.525-21.248 257.536 69.035 52.096 90.197 21.205 205.483-69.035 257.536-90.24 51.968-205.44 21.035-257.493-69.035zM709.547 156.544c1.536 1.152 2.517 2.432 3.669 3.797 9.259-34.432 5.333-72.277-13.824-105.515-18.048-31.232-46.549-52.693-78.379-62.891 0.469 2.176 0.811 4.395 0.725 6.784-1.323 29.397 6.571 118.997 87.808 157.824zM459.349 53.632c146.731 72.576 124.971 209.195 124.885 209.664 21.888-0.811 43.989-6.784 64.256-18.432 18.56-10.624 33.536-25.216 44.885-41.685-0.896 0-1.493 0.085-2.347 0 0 0-129.749-49.536-119.168-213.205 0.085-1.579 0.341-3.029 0.64-4.352-21.547 0.939-43.093 6.869-62.976 18.304-21.589 12.459-38.4 29.739-50.176 49.707zM458.539 193.877c17.579 30.592 45.013 51.755 76.032 62.165 6.955-89.771-66.645-141.312-92.757-154.923-5.248 30.805-0.128 63.573 16.725 92.757zM336.427 621.355l-0.469-0.085 15.616-100.992 3.968-125.568-0.213-2.389 0.256-0.171-33.109-57.344 0.043-0.085-121.045-210.048 69.163-39.893 121.088 210.005 0.085-0.085 33.92 58.709 108.331 59.477 92.373 36.224-0.469 0.469c61.739 20.864 118.741 65.707 156.16 130.475 74.453 129.237 43.008 286.763-70.187 351.915-113.152 65.237-265.216 13.44-339.712-115.797-36.267-62.848-46.891-132.352-35.797-194.816zM435.2 770.987c51.669 89.557 155.392 126.421 231.552 82.432 76.117-43.947 96.085-152.149 44.416-241.792-51.669-89.515-155.435-126.379-231.595-82.432-76.16 43.989-96.085 152.32-44.373 241.792z" />
<glyph unicode="&#xe933;" glyph-name="theatre" d="M987.349 489.259v252.203c0 27.733-22.485 50.261-50.261 50.261h-504.405c-27.733 0-50.261-22.485-50.261-50.261v-252.203c0 0-0.085-5.376 0-14.080v-1.237c0-0.085 0-0.213 0-0.256 0.128-6.528 0.512-15.232 1.195-25.387 2.091-41.813 8.747-82.133 17.707-118.571 28.715-124.757 101.077-293.248 283.605-393.6 184.875 107.648 256.683 278.016 284.587 401.323 14.635 63.232 17.579 112.555 17.877 133.077v4.992c0.085 8.491-0.043 13.739-0.043 13.739zM457.685 487.083c0 0 87.253 116.779 176.128 0-85.973-136.576-176.128 0-176.128 0zM684.843 133.419c-83.328 0-150.827 67.499-150.827 150.741 161.92-129.493 301.653 0 301.653 0 0-83.243-67.413-150.741-150.827-150.741zM735.829 487.083c88.917 116.779 176.085 0 176.085 0s-90.027-136.576-176.085 0zM389.461 172.843c-0.341 0.896-33.195 68.011-42.581 101.76-10.453 40.576-18.219 80.512-23.723 117.504-41.685-2.816-87.893-19.925-134.869-63.915-0.256 74.325 53.504 135.936 124.331 148.48-0.725 8.107-2.048 15.829-2.432 24.064-0.725 10.069-1.024 18.773-1.195 25.344 0 0.043 0 0.171 0 0.256v1.237c-0.085 8.704 0 13.995 0 13.995v13.995c-0.597 27.392 0 43.52 0 43.52v194.773c0 27.733 22.443 50.261 50.261 50.261h282.325v65.451c0 27.776-22.443 50.261-50.304 50.261h-504.363c-27.776 0-50.261-22.485-50.261-50.261v-252.203c0 0-0.085-5.333 0-14.037v-1.195c0-0.085 0-0.213 0-0.256 0.171-6.528 0.512-15.189 1.195-25.301 2.091-41.813 8.747-82.176 17.664-118.656 28.715-124.757 101.077-293.205 283.605-393.6 17.536 10.24 33.28 21.333 48.469 32.683h0.085l1.493 1.152c1.067 0.853 2.176 1.664 3.243 2.432-0.043 0.085-0.043 0.085-0.043 0.256l9.6 7.851-12.501 24.149zM111.957 655.189c0 0 87.211 116.693 176.171 0-86.059-136.619-176.171 0-176.171 0z" />
<glyph unicode="&#xe934;" glyph-name="villa" d="M512 959.531v0.128l-0.085-0.043-0.128 0.043-0.085-0.128-327.552-129.664v-106.667l0.725-2.133 327.040 129.408 326.997-129.152 0.939-0.256v108.757zM785.152 695.808l-273.237 105.771-273.195-105.771v-0.512l-54.571-22.997v-736h655.573v736.043l-54.571 22.528v0.939zM511.957-9.088h-218.624v323.84h218.624v-323.84zM511.957 461.611h-218.624v164.309h218.624v-164.309zM730.496 154.667h-163.925v159.829h163.925v-159.829zM730.496 461.824h-163.925v163.968h163.925v-163.968z" />
<glyph unicode="&#xe935;" glyph-name="weapons" d="M639.573 684.843v70.4c0 28.16-22.827 51.029-51.029 51.029h-57.387v51.072h-0.043c0 26.923 21.077 48.469 47.573 50.304 8.875-0.555 33.451-4.437 52.48-29.781 0.299-0.384 0.427-0.427 0.768-0.853 0.085-0.043 0.171-0.128 0.171-0.171 4.096-5.205 6.784-7.083 8.661-7.125 17.621-13.995 39.424-22.741 63.488-22.741 56.363 0 102.101 45.739 102.101 102.059 0 3.627-1.195 6.869-1.707 10.368h-51.883c0.853-3.499 2.56-6.571 2.56-10.368 0-28.16-22.827-51.029-51.029-51.029-15.872 0-29.568 7.765-38.997 19.2l-0.768-0.469c0 0-2.517 3.2-6.784 7.723-9.301 10.368-20.224 18.517-32.896 24.491-3.584 1.877-7.509 3.541-11.648 4.949-2.304 0.768-4.565 1.536-6.869 2.133-1.109 0.299-2.389 0.853-3.499 1.067-0.085-0.213-0.085-0.427-0.085-0.64-6.784 1.451-13.611 2.859-20.693 2.859-56.32 0-102.016-45.696-102.016-102.059v-51.029h-44.544c-28.203 0-51.072-22.869-51.072-51.029v-69.333c40.235 10.197 82.091 16.171 125.483 16.171 44.928 0.043 88.192-6.315 129.664-17.195zM512 660.651c-199.936 0-361.984-162.048-361.984-362.069 0-199.936 162.048-361.984 361.984-361.984s361.984 162.091 361.984 361.984c0 200.021-162.048 362.069-361.984 362.069zM337.835 345.259c-43.563 0-78.933 35.243-78.933 78.933s35.285 78.976 78.933 78.976c43.605 0 78.933-35.285 78.933-78.976s-35.328-78.933-78.933-78.933z" />
<glyph unicode="&#xe936;" glyph-name="working-tools" d="M980.395 837.589h-520.747c-23.765 0-43.051-19.243-43.051-43.051v-44.032h-130.304c-23.936 0-43.392-19.456-43.392-43.392v-42.283h-154.112l-88.064-45.355 88.064-46.763h154.069v-39.083c0-23.979 19.413-43.392 43.392-43.392h130.347v-44.032c0-23.851 19.285-43.051 43.008-43.051h83.285v-214.656c0-71.979 58.24-130.091 130.091-130.091h209.536v0.768c22.229 1.92 39.808 20.011 39.808 42.667v301.312h57.984c23.723 0 43.008 19.2 43.008 43.051v348.331c0.043 23.851-19.157 43.051-42.923 43.051zM738.091 137.472h-57.045c-43.563 4.693-77.483 41.088-77.483 85.845 0 1.195 0.384 2.347 0.427 3.541h-0.341v166.827h134.443v-256.213zM906.923 561.835h-165.077c-16.469 0-29.781 13.355-29.781 29.781 0 16.469 13.312 29.824 29.781 29.824h165.077c16.427 0 29.781-13.397 29.781-29.824 0-16.469-13.355-29.781-29.781-29.781zM894.251 664.832h-234.965c-23.424 0-42.453 17.621-42.453 39.339 0 21.675 18.944 39.296 42.453 39.296h234.965c23.424 0 42.453-17.621 42.453-39.296 0-21.717-19.029-39.339-42.453-39.339z" />
</font>
</defs>
</svg>
